Like Ra in latex catsuit, latex mask and high heels
Like Ra's Naughty Playground

nose hook bondage
IKOKY Slave Training SM Bondage Force Rise Adjustable Elastic Strap Nose Hook Unisex Sex Toy for Couples Role Playing
$3.23-22%

JLZLSHONGLE pantyhose
New Lingerie Back Line Sexy Black Bundled Garters Print Open Crotch Tights Transparent Pantyhose Womens Fake Garter Stockings
$6.03-20%

app electric shock
Electric Shock APP Control Vibrator For Women Wireless Remote Control Vagina Massage Vibrating Jumping Eggs Sex Toys for Women
$50.53-30%

latex tights
1 Pair Men's Wet Look Latex Leather Stockings Thigh High Footed Stockings Tights Socks Clubwear Stage Underwear For Unisex
$22.80-33%

temorish
MEN LATEX BRIEFS OPEN CROTCH RING HOLE HIGH WAIST
$47.19-6%

aonihua women one
2024 Summer Sexy One Piece Swimsuit Solid Swimwear Women Bathing Suit Beachwear Monokini Swimming Suit
$29.03-25%

anime bdsm
Nurse Fantasy Costume Set-5pcs Cosplay Anime Women Sexy Lingerie Cute Naughty Hentai Sex Toys Porn Love Doctor Kiss Egzotic Fun
$105.67



To view Aliexpress you might need to switch your mobile browser to the Desktop version.

If you would like to use search functions, view hidden archives or play games, please consider registering.

No activation mail? (Gmail is known for that) Please contact me directly!

We do not have old threads! Feel free to post in any! Regardless the age!


Tom Tame's sissification hypno videos
#51
(22 Aug 2023, 16:51 )Like Ra Wrote:
(22 Aug 2023, 01:59 )Eevee Bambi Wrote: what does AVC mean?
I was also wondering...

It probably means Advanced Video Coding which is part of mpeg4-10 I think.
Reply
#52
Downloaded! It's available in RS now.
Reply
#53
(22 Aug 2023, 18:56 )tng1206 Wrote: It probably means Advanced Video Coding which is part of mpeg4-10 I think.

Yes!

Format : MPEG-4
Format profile : Base Media / Version 2
Codec ID : mp42 (MSNV/isom/mp42)
File size : 5.92 GiB
Duration : 19 min 55 s
Overall bit rate : 42.6 Mb/s
ideo
ID : 1
Format : AVC
Format/Info : Advanced Video Codec
Format profile : High@L5.2
Format settings : CABAC / 2 Ref Frames
Format settings, CABAC : Yes
Format settings, Reference frames : 2 frames
Format settings, GOP : M=3, N=13
Codec ID : avc1
Codec ID/Info : Advanced Video Coding
Duration : 19 min 55 s
Source duration : 19 min 55 s
Bit rate : 42.2 Mb/s
Width : 4 096 pixels
Height : 2 160 pixels
Display aspect ratio : 16:9
Frame rate mode : Constant
Frame rate : 60.000 FPS
Color space : YUV
Chroma subsampling : 4:2:0
Bit depth : 8 bits
Scan type : Progressive
Bits/(Pixel*Frame) : 0.079
Stream size : 5.87 GiB (99%)
Source stream size : 5.87 GiB (99%)
Language : English
Encoded date : UTC 2023-08-18 05:37:20
Tagged date : UTC 2023-08-18 05:37:20
Color range : Limited
Color primaries : BT.709
Transfer characteristics : BT.709
Matrix coefficients : BT.709
mdhd_Duration : 1195062
Codec configuration box : avcC

Audio
ID : 2
Format : AAC LC
Format/Info : Advanced Audio Codec Low Complexity
Codec ID : mp4a-40-2
Duration : 19 min 55 s
Source duration : 19 min 55 s
Bit rate mode : Constant
Bit rate : 384 kb/s
Channel(s) : 2 channels
Channel layout : L R
Sampling rate : 48.0 kHz
Frame rate : 46.875 FPS (1024 SPF)
Compression mode : Lossy
Stream size : 54.7 MiB (1%)
Source stream size : 54.7 MiB (1%)
Language : English
Encoded date : UTC 2023-08-18 05:37:20
Tagged date : UTC 2023-08-18 05:37:20
mdhd_Duration : 1195049
Reply
#54
(22 Aug 2023, 16:51 )Like Ra Wrote:
(20 Aug 2023, 00:10 )Like Ra Wrote: 6GB!!!!!
It's stuck at 84% ...
(22 Aug 2023, 01:59 )Eevee Bambi Wrote: what does AVC mean?
I was also wondering...

Advanced Video Coding (AVC), also called H. 264, is the most common video compression standard in use today. AVC/H. 264 can encode high-quality video at lower bit rates than older compression standards (the "bit rate" is the number of units of information that have to be processed for each second of video).
Reply
#55
20 Astral Complete.mp4 (7.42GB) is also on RetroShare.
Reply
#56
Actually, all Tom Tame's files (40GB) are on RetroShare:

Show Content
Reply
#57
Astral Swap


Source: https://hypnotube.com/video/astral-swap-39121.html
Reply
#58
Would anyone be kind enough to throw "Why Not Love?" into something like gofile for those of us without Retroshare?
Reply
#59
(06 Sep 2023, 20:36 )annitoy Wrote: Would anyone be kind enough to throw "Why Not Love?"  into something like gofile for those of us without Retroshare?

i support it  😁
Reply
#60
(23 Aug 2023, 20:07 )Like Ra Wrote: Actually, all Tom Tame's files (40GB) are on RetroShare:
Can you give me the link? Thanks
Reply


Possibly Related Threads…
Thread Author Replies Views Last Post
Sissification hypnosis (Warning: dangerous!) Like Ra 951 1,079,993 27 Feb 2024, 16:31
Last Post: napras-sword
Sissification-related videos: which ones do u like? princesitanatty 12 14,128 16 Sep 2022, 11:50
Last Post: GraceFem



Contributors: annitoy (1) , bobhoze (3) , catmartyr (1) , dustymoon1 (4) , fdv161 (3) , guytohypno (1) , HypnoMix (1) , hypnotizedslut (1) , jeffkronn (1) , JesseC (1) , jthursday (1) , Kari9 (1) , LeilaCM (8) , Like Ra (30) , lurker (4) , Lycalopex (3) , napras-sword (2) , NotSpoogeanator (1) , Oldself (5) , sam_henry (1) , slut_sqrd (1) , spiraltone42 (2) , tng1206 (1) , Weeble (3)